Обзор ARTWAY AV-620. Двухканальное зеркало FullHD. Artway видеорегистратор зеркало


Обзор ARTWAY AV-620. Двухканальное зеркало FullHD

Наконец-то в мои руки попало достойное, бюджетное, двухканальное зеркало от компании ARTWAY AV-620, которое не стыдно будет установить в машину. Это зеркало заднего вида не испортит эстетического вида в салоне Вашего автомобиля.

Чем же хорош ARTWAY AV-620. По заявленным от производителя характеристикам, мы получаем:1. Две камеры, одна из которых выполняет роль основной камеры (установлена в самом зеркале), а вторая, вспомогательная, устанавливается в задней части автомобиля и выполняет роль фиксации видео во время движения или во время парковки.2. Обе камеры снимают с разрешением FullHD 1920*10803.Широкий угол обзора 170 гр.4. Большой 4,3” экран монитора.5. Функция режима парковки, для фиксации всех аварийных ситуаций, пока Вас нет в автомобиле.

<a href=»//socialmart.ru» title=»SocialMart» target=»_blank»>Виджет от SocialMart</a> На самом деле плюсов больше чем я ожидал и поэтому в данном обзоре мы постараемся разобрать их все, а также затронуть все минусы, а их немного.

Технические характеристики

Дисплей: 4,3 дюйма LCD

Разрешение записи: 1920х1080, 30 к/сек

Угол обзора: 170°

Угол обзора выносной камеры: 120°

Циклическая запись: Есть

Автоматическое включение/отключение при подаче питания: Есть

Датчик удара (G-sensor): Есть

Карта памяти: MicroSD до 32 Гб (10-й класс)

Матрица: 2 Мп CCD/CMOS (1/3)

Видеокодек: H.264

Режим работы: Видео/Фото/Просмотр

Комплектация: Видеорегистратор, Зеркало заднего вида, Выносная водонепроницаемая камера, Зарядное устройство, Крепление на резинке, USB-кабель, Инструкция

1. Упаковка. Внешний вид и комплектация.Если Вы возьмете упаковочную коробку от AV-620, то сразу можете понять, что это непросто кусок картона, а многофункциональная коробка, ведь в нее можно сложить много всего интересного…. Ладно, немного юмора не помешает, но на самом деле упаковка от зеркала ARTWAY выполнена на высоком уровне, ведь данная упаковка должна нести не только информационно-презентационную часть, но и сохранять зеркало во время транспортировки. Поэтому она выполнена из плотного картона и имеет магнитные элементы крепления..

На лицевой стороне и по бокам, можно рассмотреть зеркало с разных сторон, а также прочитать все основные характеристики. В нижней части упаковки, указана комплектация прибора, телефон технической поддержки, серийный номер и официальный сайт производителя.

Внешний вид зеркала стандартной пресс-формы, но данная форма на мой взгляд, самая удачная. Все кнопки управления находятся на видном и удобном месте, с лицевой стороны в нижней части под самим зеркалом.

Разъемы micro USB (для подключения выносной камеры), mini USB (для подключения провода питания), слот под карту micro SD до 32 Gb и AV-вход расположены в верхней части зеркала.

obzor artway av 620 dvuhkanalnoe zerkalo fullhd 8 767x512 - Обзор ARTWAY AV-620. Двухканальное зеркало FullHD

С обратной стороны расположен стеклянный объектив F=2.0\F=3 mm, который возможно отрегулировать после установки на штатное зеркало, 3-ИК диода расположенных над объективом, два крепежных элемента на штатное зеркало с резинками (в месте соприкосновения поверхности штатного зеркала и корпусом AV-620 имеются две мягкие прокладки), кнопка “RESET” и динамик.

Хотелось бы отметить качество сборки, оно на высоте и честно придраться не к чему. Во время тестирования обратил внимание на качество самого зеркального покрытия. В выключенном состоянии дисплей не видно, а во время вождения происходит затемнение фар сзади идущей машины со включенным дальним светом. Но есть один момент в работе, который мне не понравился. В выключенном состоянии, когда он лежит на столе или на сиденье автомобиля, любое прикосновение к нему (нажатие в области экрана) приводит к его включению. Данная проблема не мешает его работе после установки.

Комплектация полная, есть все необходимое для монтажа и работы второй камеры не только в режиме парковки, но и во время движения.

2. Меню настроек, инструкция ARTWAYAV-620

Инструкция вроде как и полная, но в то же время сжатая. Пользователи, которые первый раз взяли регистратор в свои руки, могут слегка потеряться и не понять.

Меню регистратора прямолинейное. Нажал кнопку меню и прошелся по всем пунктам. Нет никаких подводных камней. Сделано для людей.

Характеристики видео. Основная камера

Формат: AVC

Продолжительность: 2 м. 0 с.

Битрейт: 14,0 Мбит/сек

Ширина: 1920 пикселей

Высота: 1080 пикселей

Соотношение сторон: 16:9

Частота кадров: 30,000 кадров/сек

Цветовое пространство: YUV

Субдискретизация насыщенности: 4:2:0

Битовая глубина: 8 бит

Тип развёртки: Прогрессивная

Бит/(Пиксели*Кадры): 0.225

Размер потока: 202 Мбайт (100%)

Характеристики видео. Вторая камера

Продолжительность оригинала: 1 м. 59 с.

Битрейт: 7987 Кбит/сек

Ширина: 1920 пикселей

Высота: 1080 пикселей

Соотношение сторон: 16:9

Частота кадров: 25,000 кадров/сек

Цветовое пространство: YUV

Субдискретизация насыщенности: 4:2:0

Битовая глубина: 8 бит

Тип развёртки: Прогрессивная

Бит/(Пиксели*Кадры): 0.154

Размер потока: 114 Мбайт (100%)

К основной камере нет вопросов. Она отработала свои FullHD на 100%. Отлично снимает как в ночное, так и в дневное время. А вот вторая камера до FullHD не дотягивает, тут действует правило интерполяции, да и битрейт невелик. Основное назначение этой камеры, это смотреть куда едешь во время парковки и зафиксировать момент аварии, которая может подкрасться неожиданно со спины.

Примеры видео ARTWAY AV-620

4. Вывод

Да, зеркало ARTWAY AV-620 получилось очень даже неплохое. Его можно смело устанавливать в машину на штатное зеркало, ведь оно ему не будет уступать, а в некоторых моментах и будет превосходить. Качество видео основной камеры для данного уровня на высоте, а вторая камера тоже лишней не будет.

<a href=»//socialmart.ru» title=»SocialMart» target=»_blank»>Виджет от SocialMart</a>

www.videoregobzor.ru

Видеорегистратор ARTWAY AV-630 ANDROID 7 в 1 | ARTWAY ELECTRONICS

Технические характеристики Количество камер 2 Основная камера встроенная, 1 шт. Дополнительная камера есть Дополнительная камера параметры: HD 1280*720 Рекомендуемый класс карты памяти 10 Дополнительная камера выносная, 1 шт. Циклический режим есть, без пропусков КАМЕРА 1 параметры съемки: Материал линз объектива стекло Количество линз 6 МАТРИЦА: Разрешение матрицы (Мпикс.) — видео 2 Разрешение матрицы (Мпикс.) — фото 2 Тип матрицы CMOS (1/3) Максимальное разрешение видеосъемки: FHD 1080P 1920х1080 Количество кадров в сек 25 угол обзора объектива, гр 120 Возможность съемки фото / Разрешение фото, Мпикс. Встроенная подсветка ИК  Тип записи Циклический (по сегментам) Форматы записи видео MP4 Видеокодек H.264 ДИСПЛЕЙ: есть Диагональ экрана («) 5 Сенсорный дисплей Да ПОДДЕРЖКА КАРТ ПАМЯТИ Максимальный поддерживаемый объем карт 64Gb Поддержка карт памяти: Micro SD card Рекомендуемый класс карты памяти 10 КАМЕРА 2 параметры съемки: Материал линз объектива стекло Количество линз 4 Качество видеосъемки HD (720) Разрешение видеосъемки 1280*720 Количество кадров в сек 15 кадров в сек. угол обзора объектива, гр 90 Возможность съемки фото / Разрешение фото, Мпикс.  нет Встроенная подсветка LED Видеокодек H.264 Возможность подключения в качестве парковочной камеры есть ДОПОЛНИТЕЛЬНЫЕ ОПЦИИ/МОДУЛИ: G-сенсор (датчик удара) есть Датчик движения есть GPS есть Wi-Fi есть Программа защиты от перезаписи есть Функция Паркинга есть TV-выход HDMI нет TV-выход AV есть Автостарт записи есть Встроенный динамик (вопроизведение звука) есть Встроенный микрофон (Запись звука) есть время отключения (Auto power off(Shutdown time)) 8 секунд Шатмп даты и времени на видео есть Поворот камеры есть Поворот корпуса есть Тип крепления резинки ПОТРЕБЛЕНИЕ И ЭКСПЛУАТАЦИЯ: Материал корпуса пластик Рабочая температура  -10  +60 Емкость аккумулятора 1000 мАч Съемный не съёмный

artway-electronics.com

Combo-зеркало 5 в 1 ARTWAY MD-165 | ARTWAY ELECTRONICS

Характеристики радар-детектора ФУНКЦИИ и ДИАПАЗОНЫ ЧАСТОТ: радары Сокол, Барьер: Х  — ДИАПАЗОН: рабочая частота 10425-10625 МГц радары Радис, Визир, Арена, Места, Мультарадар, Кордон, Крис-П: К  — ДИАПАЗОН: рабочая частота 24050-24250 МГц Ка  — ДИАПАЗОН: рабочая частота 33400-36000 МГц поддержка режимов Ultra-K / Ultra-X / POP / Приемник сигнала (радиоканал) супергетеродин Обработка сигнала (радиоканал) цифровая DSP — Digital Signal Processing (цифровая обработка сигналов) есть Обнаружение комплексов контроля средней скорости (Автодория) есть Обнаружение комлекса «СТРЕЛКА» есть Оповещение о точках  POI есть встроенный GPS модуль внешний ЧИП-СЕТ для GPS модуля USA ,  U-blox НАСТРОЙКИ: Город1 / Город2 / Город3 / Трасса отключение отдельных диапазонов есть возможность Автоматического переключения трасса / город есть возможность отключения звуковых оповещений есть возможность отключения голосовых оповещений есть дополнительные особенности настройки: Обновление базы данных камер Обновляемое ПО: Да Характеристики видеорегистратора Количество камер 2 Основная камера встроеная, 1 шт. Дополнительная камера выносная, 1 шт. Дополнительная камера — параметры: водонепроницаемая Циклический режим есть КАМЕРА 1 параметры съемки: Материал линз объектива стекло МАТРИЦА: Разрешение матрицы (Мпикс.) — видео FHD (1920х1080) 1080 р / 2Мп Разрешение матрицы (Мпикс.) — фото 8 Тип матрицы CCD/CMOS (1/3) Максимальное разрешение видеосъемки: 1920*1080 Количество кадров в сек 30 угол обзора объектива, гр 170 Возможность съемки фото / Разрешение фото, Мпикс. Да/ 8МП, 5МП, 2МП, 1МП Встроенная подсветка нет Ночной режим нет  Тип записи Циклический с возможностью настройки временных отрезков Форматы записи видео MP4 Видеокодек H.264 Зум нет ДИСПЛЕЙ: есть Тип дисплея HD и TFT LCD Диагональ экрана («) 5 Регулировка яркости нет переход в спящий режим (Screen saver): да ПОДДЕРЖКА КАРТ ПАМЯТИ Максимальный поддерживаемый объем карт 32Gb Поддержка карт памяти: Micro SD card Рекомендуемый класс карты памяти 10 ВСТРОЕННЫЙ ДИНАМИК Регулировка громкости в режиме воспроизведения есть голосовое оповещение голосовое и тоновое Регулировка громкости есть Беззвучный режим есть фильтр ложных оповещений есть ДОПОЛНИТЕЛЬНЫЕ ОПЦИИ/МОДУЛИ возможность установки / удаления пользовательских геоточек 100 возможность установки / удаления пользовательских геоточек «тишины» нет Одометр встроенный нет Электронный компас встроеный есть диапазон отклонения встроенного электронного компаса Часы есть Cистема SLC есть Защита от обнаружения VG-2 G-сенсор (датчик удара) есть Датчик движения есть датчик освещенности есть память настроек есть пульт дистанционного управления нет провод питания с дополнительным слотом нет Wi-Fi нет кнопка SOS есть, функцией Функция Паркинга есть, функцией TV-выход HDMI нет TV-выход AV есть Автостарт записи есть Запись скорости нет время отключения (Auto power off(Shutdown time)) есть (3 сек/ 5 сек / 10 сек/выключено) Штамп даты и времени на видео есть КОНСТРУКЦИЯ И МАТЕРИАЛЫ Материал корпуса  пластик Рабочая температура -30÷ +70 Емкость аккумулятора 500 мАч КАМЕРА 2 параметры съемки: Материал линз объектива стекло Объектив 6 линз Качество видеосъемки  Full HD(1080) Разрешение видеосъемки: 1920*1080 Количество кадров в сек 25 угол обзора объектива, гр 140  Тип записи Циклический с возможностью настройки временных отрезков Форматы записи видео MP4 Видеокодек H.264 Возможность подключения в качестве парковочной камеры есть Порядок записи двух камер: в отдельные файлы

artway-electronics.com

Combo-зеркало 3 в 1 ARTWAY MD-163 | ARTWAY ELECTRONICS

Характеристики радар-детектора ФУНКЦИИ и ДИАПАЗОНЫ ЧАСТОТ: радары Сокол, Барьер: Х  — ДИАПАЗОН: рабочая частота 10425-10625 МГц радары Радис, Визир, Арена, Места, Мультарадар, Кордон, Крис-П: К  — ДИАПАЗОН: рабочая частота 24050-24250 МГц Ка  — ДИАПАЗОН: рабочая частота 33400-36000 МГц поддержка режимов Ultra-K / Ultra-X / POP / Приемник сигнала (радиоканал) супергетеродин Обработка сигнала (радиоканал) цифровая DSP — Digital Signal Processing (цифровая обработка сигналов) есть Обнаружение комплексов контроля средней скорости (Автодория) есть Обнаружение комплекса «СТРЕЛКА» есть Обнаружение камер контроля полосы движения нет Обнаружение камер контроля стоп-линии нет Оповещение о точках  POI есть встроенный GPS модуль внешний НАСТРОЙКИ: Город1 / Город2 / Город3 / Трасса отключение отдельных диапазонов есть возможность Автоматического переключения трасса / город есть возможность отключения звуковых оповещений есть возможность отключения голосовых оповещений есть дополнительные особенности настройки: Обновление базы данных камер Обновляемое ПО: Да Характеристики видеорегистратора Количество камер 1 Основная камера встроенная, 1 шт. Циклический режим есть Материал линз объектива стекло Количество линз 6 МАТРИЦА: Разрешение матрицы (Мпикс.) — видео FHD (1920х1080) 1080 р / 2Мп Разрешение матрицы (Мпикс.) — фото 8 Тип матрицы CMOS (1/3) Максимальное разрешение видеосъемки: 1920*1080 Количество кадров в сек 30 угол обзора объектива, гр 170 Возможность съемки фото / Разрешение фото, Мпикс. Да/ 8 МП, 5МП, 2МП, 1МП Встроенная подсветка нет Ночной режим нет  Тип записи Циклический с возможностью настройки временных отрезков, 1 мин / 3 мин / 5 мин Форматы записи видео MP4 Видеокодек H.264 Зум нет ДИСПЛЕЙ: два дисплея: для в/рег и радар-детектора Тип дисплея IPS Диагональ экрана («) 5 Регулировка яркости нет переход в спящий режим (Screen saver): настраиваемый 10 сек / 20 сек / 30 сек /выкл. ПОДДЕРЖКА КАРТ ПАМЯТИ Максимальный поддерживаемый объем карт 32Gb Поддержка карт памяти: Micro SD card Рекомендуемый класс карты памяти 10 ВСТРОЕННЫЙ ДИНАМИК есть Регулировка громкости в режиме вопроизведения есть голосовое оповещение голосовое и тоновое Регулировка громкости есть Беззвучный режим есть фильтр ложных оповещений есть ДОПОЛНИТЕЛЬНЫЕ ОПЦИИ/МОДУЛИ возможность установки / удаления пользовательских геоточек 100 Электронный компас встроенный есть Часы есть Cистема SLC есть Защита от обнаружения VG-2 G-сенсор (датчик удара) есть Датчик движения есть Датчик освещенности есть Память настроек есть TV-выход AV есть Автостарт записи есть Время отключения (Auto power off(Shutdown time)) есть (3 сек/ 5 сек / 10 сек/выключено) Штамп даты и времени на видео есть КОНСТРУКЦИЯ И МАТЕРИАЛЫ Поворот камеры есть Материал корпуса пластик Рабочая температура -30+70 Емкость аккумулятор 500 мАч ТИП КРЕПЛЕНИЯ резинки

artway-electronics.com

AV-110, 520, 390, 600, 510, 338, 513

Автомобильные видеорегистраторы Artway появились на российском рынке в 2015 году. Компания предлагает множество моделей с различными форм-факторами и существенным ценовым разбросом. Несмотря на то что многие регистраторы этой фирмы относятся к бюджетному сегменту, они отличаются высокой надежностью. Офис компании находится в Санкт-Петербурге, но производство налажено в Корее и Китае. В случае возникновения непредвиденных проблем можно обращаться напрямую в техническую поддержку. Сервисные центры, расположенные во многих городах, исправно выполняют свои гарантийные обязательства.

Логотип Artway

Artway MD-160 и 161

Зеркало Artway MD-160 — это регистратор с 2 камерами, детектором радаров, модулем GPS и ассистентом парковки. Большой монитор с диагональю 4,3″ отличается яркостью изображения и высоким разрешением. С его помощью можно не только настраивать регистратор, но и просматривать записанные видеоматериалы. Объектив с углом обзора 140° охватывает все полосы движения и необходимые детали.

Видеорегистратор Artway MD-160

Функция OSL проследит, чтобы водитель не превышал максимально допустимую скорость в местах ограничения. В руководстве пользователя сказано, что водонепроницаемая камера надежно защищена от воздействия сложных погодных условий и может быть установлена снаружи.

Комбинированное зеркало Artway MD-161 выполняет функции видеорегистратора, обнаружителя радаров и GPS-информатора. Благодаря функции OCL водитель сможет настроить расстояние, на котором он хочет получать предупреждения о радарах. Их можно обнаруживать на различных дистанциях (от 400 до 1500 м).

Видеорегистратор Artway MD-161

Регистратор создает короткие видеоролики, которые могут длиться от 1 до 5 минут. В зависимости от объема карты памяти может хватить на 5-10 часов. Устройство автоматически начинает стирать старые файлы, заменяя их новыми.

Artway AV-391 и AC-905

Регистратор Artway AV-391 обладает встроенной системой ночного видения Super Night Vision, обеспечивает высокое качество записи с разрешением Full HD и со скоростью 30 FPS. Корпус устройства изготовлен из металла. Процессор и оптика этой модели разработаны специально для съемки в темное время суток.

Видеорегистратор Artway AV-391

Благодаря функции Wide Dynamic Range камера делает сразу 2 кадра с различным временем выдержки. Затем эти кадры объединяются в одно целое, и при этом используются только лучшие фрагменты каждого из них. На регистраторе установлен дисплей с диагональю 3″.

Устройство Artway AC-905 с водонепроницаемым корпусом выполняет функции экшн-камеры и видеорегистратора. Видео записывается с разрешением 4K Ultra HD. Имеется встроенный модуль Wi-Fi. Высокое качество съемки обеспечивает процессор Allwinner V3 и матрица Sony с разрешением 16 Мп.

Видеорегистратор Artway AC-905

Формат 4K дает качество изображения, которое в 4 раза лучше Full HD. Регистратором можно управлять с помощью смартфона iOS или Android. Для этого нужно скачать бесплатное приложение в интернет-магазине App Store или Google Play. Съемный аккумулятор устройства может работать автономно до 2 часов.

Artway AV-700 и 711

Регистратор Artway AV-700 с возможностью записи видео в разрешении Super HD 2304×1296 оснащается относительно большим дисплеем 3″ и объективом с углом обзора 170°. Формат Super HD обеспечивает качество, которое почти в 2 раза лучше Full HD. Можно рассчитывать на качественную картинку не только днем, но и в ночное время.

Видеорегистратор Artway AV-700

Регистратор оснащен высокопроизводительным процессором Ambarella A7. Объектив содержит 6 стеклянных линз, которые пропускают значительно больше света, чем пластиковые. Кроме того, стекло не так быстро мутнеет и желтеет.

Устройство Artway AV-711 также поддерживает Super HD, а его объектив насчитывает 7 стеклянных линз и предлагает угол обзора 150°. Предусмотрен режим парковки, который автоматически включает запись в случае удара. Благодаря этому на видеозаписи можно будет рассмотреть автомобиль, его номера и иногда даже лицо водителя, который виноват в столкновении.

Видеорегистратор Artway AV-711

Регистратор записывает короткие ролики продолжительностью от 1 до 5 минут. При этом автоматически проставляется дата и время, а также номер автомобиля владельца. Благодаря наличию такой информации видеозапись будет выглядеть более убедительной.

Artway AV-601 и 610

Видеорегистратор Artway AV-601 с возможностью установки на центральном зеркале заднего вида оснащается 2 камерами и ассистентом парковки. Имеется яркий дисплей с диагональю 4,3″. Камера надежно защищена от дождя, снега и грязи. Ее можно установить даже под номерным знаком. Для удобства пользователя видеозаписи с разных камер будут сохранены в отдельные папки. Ассистент парковки активируется автоматически при включении заднего хода.

Видеорегистратор Artway AV-601

Система умеет определять допустимое расстояние до препятствия. У модели 601 отзывы покупателей подчеркивают, что регистратор выглядит как обычное салонное зеркало и не привлекает к себе лишнее внимание.

Устройство Artway AV-610 — это регистратор в виде салонного зеркала с надежным креплением, исключающим вибрации. Диагональ монитора — 2,4″. Высокое разрешение дисплея позволяет с комфортом просматривать записанные ролики. Камера оснащается поворотным механизмом. Оптическая система содержит 6 стеклянных линз.

Видеорегистратор Artway AV-610

Видео записывается в циклическом режиме, то есть старые файлы автоматически удаляются и заменяются новыми. В роликах проставляются штампы даты и времени, чтобы они выглядели убедительными доказательствами в случае ДТП.

Artway MD-100 и 102

Комбинированное устройство Artway MD-100 — это видеорегистратор со встроенным обнаружителем радаров. Благодаря небольшим размерам он удачно вписывается в салон любого автомобиля и не закрывает обзор. Объектив с углом обзора 140° захватывает соседние и встречные полосы движения. Диагональ экрана — 2″.

Видеорегистратор Artway MD-100

Функция голосового оповещения будет предупреждать об установленных поблизости устройствах контроля скорости. Эта система создана для того, чтобы водитель не отвлекался, своевременно получал нужную информацию и принимал необходимые меры.

Устройство Artway MD-102 — это черный видеорегистратор со встроенным антирадаром и модулем GPS, который крепится к лобовому стеклу с помощью вакуумной присоски. Диагональ экрана составляет 2″. Регистратор оснащается встроенным динамиком, содержит голосовые подсказки, записывает время и дату.

Видеорегистратор Artway MD-102

Видео с разрешением Full HD. Антирадар своевременно предупреждает водителя о том, что автомобиль приближается к зоне контроля скорости. Пользователь сам выбирает, на каком расстоянии он хочет получать оповещения. Камера предлагает угол обзора 140°, и этого будет достаточно в большинстве ситуаций.

Artway AV-110 и 111

Видеорегистратор Artway AV-110 оснащается дисплеем 2,4″, поворотным креплением и инфракрасной подсветкой. Устройство можно развернуть таким образом, чтобы записать разговор с сотрудником полиции.

Видеорегистратор Artway AV-110

У модели AV-110 инструкция по эксплуатации автовидеорегистратора гласит, что с помощью кнопки SOS можно защитить определенный файл от перезаписи, если он содержит подробности аварии или другого важного дорожного происшествия. При этом ролик будет перемещен в специальную папку на карте памяти microSD. Этот файл может понадобиться для судебных разбирательств или публикации на YouTube. Фиксация даты и времени поможет определить, когда произошло событие.

Видеорегистратор Artway AV-111 отличается стильным, современным и ультратонким корпусом из металла. Устройство крепится на рабочее место и снимается очень быстро. Дисплей с диагональю 2,4″ служит для осуществления настроек и просмотра записанных видеоматериалов.

Видеорегистратор Artway AV-111

Пользователь самостоятельно настраивает продолжительность роликов. Их длина может составлять от 1 до 5 минут. У AV-111 отзывы владельцев говорят, что карта памяти полностью заполняется через 10 часов непрерывной записи. Кроме времени и даты во время записи фиксируется также номер автомобиля.

Artway AV-620 и 630

Устройство AV-620 выглядит, как центральное зеркало заднего вида. Сборка регистратора выполнена на высоком уровне. Основная камера устанавливается на самом зеркале, а вспомогательная — в задней части автомобиля. Передний объектив поддерживает разрешение Full HD и обеспечивает угол обзора 170°. Регистратор оснащается большим дисплеем 4,3″ размером с радар.

Видеорегистратор Artway AV-620

Дополнительная камера подключается через порт microUSB. Разъем miniUSB служит для соединения с аккумулятором. Поддерживаются карты памяти microSD до 32 Гб. У модели AV-620 отзывы говорят о том, что меню дисплея интуитивно понятное и не содержит никаких сложных настроек.

Регистратор AV-630 тоже оснащается 2 камерами, но только фронтальная создает записи Full HD. Устройство управляется с помощью планшета с сенсорным дисплеем 5″ и операционной системой Android 4.2.2. Это полноценное мобильное устройство, на которое можно установить любые приложения из Google Play.

Видеорегистратор Artway AV-630

Регистратор соединяется с планшетом через Wi-Fi. Модуль GPS будет информировать водителя о наличии радаров. Задняя камера устойчива к неблагоприятным погодным условиям, и ее можно смело устанавливать снаружи. В качестве приятных бонусов выступают FM-трансмиттер и ассистент парковки.

Artway AV-022 и 480

Регистратор Artway AV-022 — это бюджетное устройство для съемки видео среднего качества. Из приятных особенностей необходимо отметить откидной дисплей и съемную батарею. В случае неисправности аккумулятор можно будет заменить (в отличие от регистраторов со встроенными батареями, которые после поломки можно только выбросить).

Видеорегистратор Artway AV-022

На видеозаписях с разрешением 1280×720 автомобильные номера удается рассмотреть только с близкого расстояния. Если на карте памяти закончится свободное место, то автоматическая перезапись производиться не будет.

Модель AV-480 записывает видео с разрешением 1920×1080. Диагональ монитора составляет 2,7″. Емкость резервной батареи — 300 мАч. Поддерживаются карты памяти microSD объемом до 32 Гб. Камера предлагает угол обзора 170°. На регистраторе есть датчик распознавания ударов и микрофон. Корпус устройства металлический, но очень тонкий.

Видеорегистратор Artway AV-480

Светодиод обеспечивает ночную съемку в хорошем качестве. Меню настройки не вызывает затруднений у новичков, кнопки возле дисплея работают четко. Регистратор включается автоматически, когда заводится автомобиль. После выключения зажигания он продолжает работать еще 30 секунд.

Artway MD-101 и 163

Регистратор Artway MD-101 — это бюджетное устройство, которое создает ролики в формате HD вместо Full HD. Отсутствует датчик движения, но есть G-сенсор. Угол обзора объектива — 140°. Крепление к лобовому стеклу довольно неудобное, так что не получится быстро установить его или снять. Небольшого дисплея 2″ достаточно, чтобы выполнить все необходимые настройки.

Видеорегистратор Artway MD-101

Детектор получился слишком чувствительным и довольно часто обнаруживает радары там, где их на самом деле нет. Немного исправляет ситуацию модуль GPS, база данных которого содержит информацию об установленных радарах.

Устройство Artway MD-163 выполнено в виде салонного зеркала. Под зеркальным покрытием скрываются 2 дисплея: монитор IPS 5″ и маленький экран для детектора радаров. На регистраторе расположены камера, кнопка Reset, динамик и крепление.

Видеорегистратор Artway MD-163

Предусмотрены разъемы miniUSB и AV, слот для карты памяти. Меню дисплея содержит такие расширенные настройки, как экспозиция, контраст, автоматический старт записи, задержка отключения и т.д. Видеоролики продолжительностью 3 минуты записываются в формате AVI.

Artway AV-600 и 710

Видеорегистратор Artway AV-600 работает с 2 камерами. Это бюджетное многофункциональное устройство, которое создает видео среднего качества, но его будет достаточно, чтобы зафиксировать момент ДТП. У модели AV-600 отзывы говорят о том, что передняя камера с матрицей CCD/CMOS может записывать ролики в хорошем качестве только в том случае, если задняя камера полностью выключена.

Видеорегистратор Artway AV-600

Мощности процессора не хватает для того, чтобы обеспечить одновременную запись. Вторая камера служит в основном как ассистент парковки. Диагональ большого и яркого дисплея, замаскированного под зеркало заднего вида, составляет 4,3″.

Модель AV-710 обладает стильным дизайном и компактными габаритами, благодаря чему не занимает много места на лобовом стекле. Объектив с диафрагмой f2.0 содержит стеклянные линзы. Дисплей 2″ покрыт защитным стеклом. Под ним расположены 4 аналоговые кнопки, которые хорошо зафиксированы и не создают лишний шум во время езды.

Видеорегистратор Artway AV-710

Меню управления условно разделили на 2 раздела. Большинство доступных опций — это настройки режима съемки. Внутри регистратора установлен флагманский процессор Ambarella 7AL50. Поддерживаются разрешения Super HD, Super Wide и Full HD с HDR. Ролики записываются с расширением MOV.

Artway AV-510, 513 и 520

Видеорегистратор Artway AV-510 создает видеоматериалы с разрешением Full HD и оснащается режимом парковки. У регистратора стильный и современный дизайн. Его можно использовать в качестве веб-камеры, если подключить к ноутбуку или компьютеру.

Видеорегистратор Artway AV-510

Приобретая эту модель, пользователь получает универсальное устройство, которое можно использовать и дома, и в автомобиле. Угол обзора 120° захватывает соседние полосы движения, что помогает снять все необходимые элементы и использовать их в качестве доказательной базы, если случится ДТП.

Видеорегистратор Artway AV-513 — это компактное устройство с привлекательным дизайном. Его размеры составляют 72x57x15, а вес — 54 г. У модели AV-513 отзывы владельцев свидетельствуют, что благодаря малой толщине регистратор без проблем устанавливается с обратной стороны зеркала заднего вида. Корпус выполнен из глянцевого и матового пластика, на котором не остаются следы от пальцев.

Видеорегистратор Artway AV-513

Возле объектива установлен светодиод, выполняющий функцию фонарика. С его помощью можно осветить салон. Под монитором 2,3″ расположены 4 серебристые кнопки и 1 красная клавиша, которая используется для переключения между режимами. Меню дисплея полностью переведено на русский язык.

Видеорегистратор Artway AV-520 оборудован 2 камерами, записывает видеоматериалы с разрешением Full HD и содержит встроенный ассистент парковки. С помощью кнопки SOS можно защитить важный ролик от перезаписи, чтобы в дальнейшем использовать его для выяснения обстоятельств, судебных разбирательств или публикации в социальных сетях.

Видеорегистратор Artway AV-520

Все видеозаписи будут содержать штампы времени и даты, чтобы они выглядели более убедительными. У модели AV-520 отзывы владельцев говорят, что ассистент парковки включается автоматически во время заднего хода и помогает определять расстояния до препятствий.

Artway AV-338 и 390

Видеорегистратор Artway AV-338 оснащается миниатюрным дисплеем 1,5″. Камера предоставляет угол обзора 120°. Файлы записываются в формате AVI с разрешением Full HD. Имеется 4 инфракрасных светодиода.

Видеорегистратор Artway AV-338

Емкость резервной батареи — 200 мАч. Поддерживаются карты памяти microSD объемом до 32 Гб.

Видеорегистратор Artway AV-390 оснащается флагманской системой ночного видения Super Night Vision. Видео записывается в Full HD со скоростью 30 FPS. Оптика состоит из 6 стеклянных линз. Благодаря функции WDR удается создавать качественные записи и в ночное время.

Видеорегистратор Artway AV-390

Регистратор снимает достойное видео, даже когда его объектив засвечивают фары встречных автомобилей.

moyoauto.ru

Обзор ARTWAY AV-600. Бюджетное 2-х канальное зеркало

Автомобильный видеорегистратор зеркало с двумя камерами поможет решить несколько задач одновременно:

obzor artway av 600 byudzhetnoe 2 h kanalnoe zerkalo 11 150x150 - Обзор ARTWAY AV-600. Бюджетное 2-х канальное зеркало obzor artway av 600 byudzhetnoe 2 h kanalnoe zerkalo 10 150x150 - Обзор ARTWAY AV-600. Бюджетное 2-х канальное зеркало
  • При установке в салоне автомобиля оно будет менее заметно и не будет привлекать лишнего внимания.
  • Не размещая дополнительных приборов на лобовом стекле, установить регистратор на штатное зеркало.
  • Установка второй камеры поможет Вам запечатлеть все, что происходит внутри салона автомобиля или снаружи, а также во время парковки.
  • Записать всё, что происходит во время движения на дороге.

На рынке автомобильных устройств можно найти большое количество зеркал с камерами, но в некоторых случаях цена бывает заоблачной и для многих неинтересной. В этом обзоре будет рассмотрен бюджетная модель ARTWAY AV-600.

obzor artway av 600 byudzhetnoe 2 h kanalnoe zerkalo 9 150x150 - Обзор ARTWAY AV-600. Бюджетное 2-х канальное зеркало obzor artway av 600 byudzhetnoe 2 h kanalnoe zerkalo 12 150x150 - Обзор ARTWAY AV-600. Бюджетное 2-х канальное зеркало

Что это за устройство и как оно покажет себя в работе, покажет только время. Сейчас, в ходе детально тестирования, предлагаем разобраться в том, насколько он хорош за ту среднюю сумму, которая установлена на основе данных Яндекс. Маркета.

<a href=»//socialmart.ru» title=»SocialMart» target=»_blank»>Виджет от SocialMart</a>

Технические характеристики:

Количество камер: 2

Циклический режим: есть (off, 1min, 2min, 5min)

Материал линз объектива: стекло / 6 линз

Разрешение матрицы (Мпикс.): видео 1,3 МП / фото 3 МП

Тип матрицы: CCD/CMOS (1/4)

Максимальное разрешение видеосъемки: FULL HD 1920*1080 30 к/с

Угол обзора объектива, гр.: 120

Возможность съемки фото / Разрешение фото, Мпикс.: 3M 1920*1440 2M 1600*1200 1.3M 1280*960 VGA 640*480

Встроенная подсветка: нет

Форматы записи видео: AVI

Видеокодек: M-Jpeg

Диагональ экрана: 4,3″

Переход в спящий режим (Screen saver): да

Поддержка карт памяти: Micro SD card (до 32Gb 10-го класса)

G-сенсор (датчик удара): есть

Датчик движения: есть

Кнопка SOS: есть

Функцией TV-выход AV: есть

Автостарт записи: есть

Встроенный динамик (воспроизведение звука): есть

Встроенный микрофон (запись звука): есть

Время отключения (Auto power off (Shutdown time)): 1 мин / 3 мин / 5 мин / выкл.

Штамп даты и времени на видео: есть

Внешний вид и комплектация

ARTWAY AV-600 поставляется в стандартной упаковке в фирменном темном оформлении. В связи с тем, что зеркало бюджетного уровня, мы получаем упаковку эконом варианта без дополнительных степеней защиты. Поэтому перед покупкой рекомендуем Вам детально проверить работоспособность устройства.

Комплектация включает в себя:

  • Провод питания в прикуриватель
  • Две крепежные резинки для фиксации на штатном зеркале
  • Вторую выносную камеру
  • Провод подключения второй камеры
  • Элементы крепежей фиксации для второй камеры
  • Инструкция на русском языке
  • Гарантийный талон
obzor artway av 600 byudzhetnoe 2 h kanalnoe zerkalo 8 781x512 - Обзор ARTWAY AV-600. Бюджетное 2-х канальное зеркало

Внешне ARTWAY AV-600 имеет стандартную пресс-форму, которое не имеет отличий от других аналогичных приборов и довольно приличное качество сборки.

obzor artway av 600 byudzhetnoe 2 h kanalnoe zerkalo 5 890x512 - Обзор ARTWAY AV-600. Бюджетное 2-х канальное зеркало obzor artway av 600 byudzhetnoe 2 h kanalnoe zerkalo 7 976x512 - Обзор ARTWAY AV-600. Бюджетное 2-х канальное зеркало

На лицевой стороне под зеркальной поверхностью скрывается большой и яркий дисплей диагональю 4.3”. В активном режиме можно произвести настройку регистратора с помощью кнопок управления, которые находятся в нижней части зеркала, а также просмотреть отснятое видео с двух камер. В неактивном режиме дисплей за зеркалом не видно, что говорит о хорошем и качественном напылении.

В верхней части расположены разъемы для подключения питания и к компьютеру mini-USB, подключения второй камеры AV-IN (Jack 3.5), слот под карту памяти micro SD (во время тестирования использовалась карта объемом на 32 Gb) и разъем DC-IN.

Обычно разъем DC-IN отвечает за подключение питания, как и написано в инструкции.

С задней части расположены крепежные элементы для установки и фиксации, две мягкие вставки, которые соприкасаются с зеркальной поверхностью штатного зеркала, микрофон и кнопка перезагрузки.

obzor artway av 600 byudzhetnoe 2 h kanalnoe zerkalo 3 1024x504 - Обзор ARTWAY AV-600. Бюджетное 2-х канальное зеркало

 

Правее находиться стеклянный объектив, который можно будет настроить.

obzor artway av 600 byudzhetnoe 2 h kanalnoe zerkalo 7 976x512 - Обзор ARTWAY AV-600. Бюджетное 2-х канальное зеркало

 

Вторую камеру, которая идет в комплекте можно использовать как парковочную, для этого ее нужно подключить к фаре заднего хода вашего автомобиля. В этом случае при включении передачи заднего хода на дисплее зеркала ARTWAY AV-600 появится изображения с задней камеры с сеткой парктроника.

obzor artway av 600 byudzhetnoe 2 h kanalnoe zerkalo 26 699x512 - Обзор ARTWAY AV-600. Бюджетное 2-х канальное зеркало obzor artway av 600 byudzhetnoe 2 h kanalnoe zerkalo 27 828x512 - Обзор ARTWAY AV-600. Бюджетное 2-х канальное зеркало

У ARTWAY AV-600 одно меню с тремя подразделами. Первый отвечает за настройку разрешения видео, Вы можете выбрать максимальное разрешение 1920*1080, среднее 1280*720 и минимальное 640*480. Второй отвечает за цикличность записи 1 мин., 2 мин., 5 мин. и выключено. В третьем разделе включены все второстепенные настройки регистратора, которыми Вы вряд ли будете пользоваться постоянно.

Видео

При съемке видео используется матрица CCD/CMOS (1/4) с максимальным разрешением 1,3 МП. Ниже приведены данные видео с двух камер.

Первая, основная:

Codec ID: MJPG

Duration: 1 min 0 s

Bit rate: 26.1 Mb/s

Width: 1 920 pixels

Height: 1 080 pixels

Display aspect ratio: 16:9

Frame rate: 30.000 FPS

Color space: YUV

Chroma subsampling: 4:2:0

Bit depth: 8 bits

Compression mode: Lossy

Bits/(Pixel*Frame): 0.420

Stream size: 188 MiB (99%)

Вторая камера (парковка):

Codec ID: MJPG

Duration: 1 min 0 s

Bit rate: 4 190 kb/s

Width: 720 pixels

Height: 480 pixels

Display aspect ratio: 3:2

Frame rate: 25.000 FPS

Color space: YUV

Chroma subsampling: 4:2:0

Bit depth: 8 bits

Compression mode: Lossy

Bits/(Pixel*Frame): 0.485

Stream size: 30.4 MiB (68%)

Перед тем как рассказывать про качество видео, хотелось напомнить, что данный регистратор — это очень бюджетное многофункциональное устройство.

Качество видео находится на среднем уровне, можно сказать, что чуть ниже среднего, но его будет достаточно чтобы зафиксировать момент ДТП. Максимального качества видео можно добиться от основной камеры в том случае, когда она работает одна, без активной второй камеры. Во время движения различима разметка и дорожные знаки, номера смазываются и их можно разглядеть только на близком расстоянии если Вы идете в одном потоке.

Вторая камера предназначена только для парковки или видеофиксации аварийных ситуаций на дороге. Качество видео на большее не тянет.

Пример видео Artway AV-600. Основная камера:

Пример видео Artway AV-600. Парковочная камера:

Пример видео Artway AV-600. Без подключения парковочной камеры:

Вывод:

Есть разные категории пользователей и каждому свое. Зеркало с двумя камерами ARTWAY AV-600 за свою стоимость окупается полностью, так как он не только выполняет все свои основные задачи (видеофиксация) за свою минимальную стоимость, но и дает возможность использовать какие-то дополнительные (вторая камера).

<a href=»//socialmart.ru» title=»SocialMart» target=»_blank»>Виджет от SocialMart</a>

www.videoregobzor.ru

Combo-зеркало 5 в 1 ARTWAY MD-160 | ARTWAY ELECTRONICS

Характеристики радар-детектора ФУНКЦИИ и ДИАПАЗОНЫ ЧАСТОТ: радары Сокол, Барьер: Х  — ДИАПАЗОН: рабочая частота 10425-10625 МГц радары Радис, Визир, Арена, Места, Мультарадар, Кордон, Крис-П: К  — ДИАПАЗОН: рабочая частота 24050-24250 МГц Ка  — ДИАПАЗОН: рабочая частота 33400-36000 МГц поддержка режимов Ultra-K / Ultra-X / POP / Приемник сигнала (радиоканал) супергетеродин Обработка сигнала (радиоканал) цифровая DSP — Digital Signal Processing (цифровая обработка сигналов) есть Обнаружение комплексов контроля средней скорости (Автодория) есть Обнаружение комлекса «СТРЕЛКА» есть Обнаружение камер контроля полосы движения нет Обнаружение камер контроля стоп-линии нет Оповещение о точках  POI есть встроенный GPS модуль есть ЧИП-СЕТ для GPS модуля USA, U-blok Модуль ГЛОССНАС нет НАСТРОЙКИ: Город1 / Город2 / Город3 / Трасса отключение отдельных диапазонов есть возможность Автоматического переключения трасса / город есть возможность отключения звуковых оповещений есть возможность отключения голосовых оповещений есть дополнительные особенности настройки: Обновление базы данных камер Обновляемое ПО: Да Характеристики видеорегистратора Количество камер 2 Основная камера встроеная, 1 шт. Дополнительная камера выносная, 1 шт. Дополнительная камера — параметры: водонепроницаемая Циклический режим есть Материал линз объектива стекло МАТРИЦА Разрешение матрицы (Мпикс.) — видео FHD Разрешение матрицы (Мпикс.) — фото 8 Тип матрицы CCD/CMOS (1/3) Максимальное разрешение видеосъемки: 1080р (FHD 1920*1080) Количество кадров в сек 25 угол обзора объектива, гр 140 Возможность съемки фото / Разрешение фото, Мпикс. Да/ 8 МП, 5МП, 2МП, 1МП Встроенная подсветка нет Ночной режим нет  Тип записи Циклический с возможностью настройки временных отрезков Форматы записи видео  AVI Видеокодек H.264 Зум нет ДИСПЛЕЙ: есть Тип дисплея HD и TFT LCD Диагональ экрана («) 4,3 Регулировка яркости нет переход в спящий режим (Screen saver): да ПОДДЕРЖКА КАРТ ПАМЯТИ Максимальный поддерживаемый объем карт 32Gb Поддержка карт памяти: Micro SD card Рекомендуемый класс карты памяти 10 ВСТРОЕННЫЙ ДИНАМИК есть Регулировка громкости в режиме воспроизведения есть голосовое оповещение голосовое и тоновое Регулировка громкости есть Беззвучный режим есть фильтр ложных оповещений есть ДОПОЛНИТЕЛЬНЫЕ ОПЦИИ/МОДУЛИ возможность установки / удаления пользовательских геоточек 100 возможность установки / удаления пользовательских геоточек «тишины» нет Одометр встроенный нет Электронный компас встроеный есть диапазон отклонения встроенного электронного компаса Часы есть Cистема SLC есть Защита от обнаружения VG-2 VCO G-сенсор (датчик удара) есть Датчик движения есть датчик освещенности есть память настроек есть пульт дистанционного управления нет провод питания с дополнительным слотом нет Wi-Fi нет кнопка SOS есть, функцией Функция Паркинга есть, функцией Автостарт записи есть Запись скорости нет время отключения (Auto power off(Shutdown time)) есть Шатмп даты и времени на видео есть КОНСТРУКЦИЯ И МАТЕРИАЛЫ Поворот камеры есть Материал корпуса пластик Рабочая температура -30  +70

artway-electronics.com


Смотрите также